#TITLE:Twins Boss Fight;
#SUBTITLE:;
#ARTIST:Unknown artist;
#TITLETRANSLIT:;
#SUBTITLETRANSLIT:;
#ARTISTTRANSLIT:;
#CREDIT:;
#BANNER:Twins Boss Fight-banner.png;
#BACKGROUND:Twins Boss Fight-bg.jpg;
#LYRICSPATH:;
#CDTITLE:;
#MUSIC:Twins Boss Fight.mp3;
#OFFSET:0.000;
#SAMPLESTART:100.000;
#SAMPLELENGTH:12.000;
#SELECTABLE:YES;
#BPMS:0.000=140.980,284.000=214.981,300.000=150.000;
#STOPS:;
#BGCHANGES:;
// cache tags:
#FIRSTBEAT:0.000;
#LASTBEAT:404.000;
#SONGFILENAME:Songs/nhac/Twins Boss Fight/Twins Boss Fight.sm;
#HASMUSIC:1;
#HASBANNER:1;
#MUSICLENGTH:165.564;
// end cache tags

//---------------dance-single - ----------------
#NOTES:
     dance-single:
     :
     Easy:
     1:
     1.000,1.000,1.000,1.000,1.000,896.000,174.000,216.000,61.000,42.000:
0010
0000
0000
0000
0000
0000
0000
0000
0000
0000
0000
0000
0100
0000
0000
0000
0000
0000
0000
0000
0000
0000
0000
0000
1000
0000
0000
0000
0000
0000
0000
0000
1000
0000
0000
0000
0000
0000
0000
0000
0000
0000
0000
0000
0000
0000
0000
0000
0100
0000
0000
0000
0000
0000
0000
0000
0000
0000
0000
0000
0000
0000
0000
0000
0110
0000
0000
0000
0000
0000
0000
0000
0000
0000
0000
0000
0000
0000
0000
0000
0001
0000
0000
0000
0000
0000
0000
0000
0000
0000
0000
0000
0000
0000
0000
0000
0100
0000
0000
0000
0000
0000
0000
0000
0000
0000
0000
0000
0000
0000
0000
0000
0000
0000
0000
0000
0000
0000
0000
0000
0011
0000
0000
0000
0000
0000
0000
0000
0000
0000
0000
0000
0000
0000
0000
0000
0000
0000
0000
0000
0000
0000
0000
0000
1111
0000
0000
0000
0000
0000
1111
0000
0000
0000
0000
0000
0000
0000
0000
0000
0000
0000
0000
0000
0000
0000
0000
0000
0000
0000
0000
0000
0000
0000
0000
0000
0000
0000
0000
0000
0000
0000
0000
0000
0000
0000
0000
0000
0000
0000
0000
0000
,
1000
0000
0000
0000
0000
0000
0000
0000
0110
0000
0001
0000
1011
0000
0000
0100
0000
0000
0000
0000
0000
0000
0000
0000
,
0000
0000
0000
0022
0000
0000
0033
0000
0000
0000
0000
0000
0000
0000
0200
0000
0300
0000
0000
0000
0000
0000
0000
0000
1000
0000
0000
0000
1000
0000
0100
0000
0000
0000
0000
0000
1000
0000
0000
0000
1000
0000
0100
0000
0000
0000
0000
0000
,
1001
0000
0000
0010
1000
0000
0011
0000
0100
0010
0001
0000
0001
0000
0010
0010
0000
0000
0001
0000
0001
0000
0000
0000
,
1001
0000
0000
1100
0011
0000
0110
0000
0000
0000
1000
0000
1000
0000
0000
1000
0000
0000
0010
0000
0001
0010
0000
0000
,
2200
3300
0120
0130
0000
0000
0100
1100
,
0000
0000
0000
0000
0000
0000
0000
0000
0000
0000
0000
0000
0000
0000
0000
0000
0000
0000
0000
0000
0000
0000
0000
0000
1100
0000
0000
0000
0000
0000
0000
0000
0120
0000
0000
0000
0100
0000
0000
0000
0230
0000
0000
0000
0000
0000
0000
0000
0300
0000
0000
0000
0000
0000
0000
0000
0120
0000
0000
0000
0000
0000
0000
0000
0130
0000
0000
0000
0000
0000
0000
0000
0010
0000
0000
0000
0000
0000
0000
0000
0110
0000
0000
0000
0000
0000
0000
0000
0000
0000
0000
0000
0000
0000
0000
0000
0120
0000
0000
0000
0000
0000
0030
0000
0010
0000
0000
0000
0120
0000
0000
0000
0030
0000
0000
0000
0010
0000
0000
0000
0000
0000
0000
0000
0020
0000
0000
0000
0030
0000
0000
0000
0010
0000
0000
0000
0010
0000
0000
0000
1100
0100
0000
0000
0100
0000
0000
0000
0000
0000
0100
0000
0000
0000
0000
0000
0000
0000
0000
0000
0100
0000
0000
0000
0000
0000
0000
0000
0000
0000
0000
0000
0000
0000
0000
0000
0000
0000
0000
0000
0000
0000
0000
0000
0000
0000
0000
0000
0000
0000
0000
0000
,
1000
0000
0000
0100
0010
0000
0001
0000
0000
0010
0100
0000
1000
0000
0000
0100
0010
0000
0001
0000
0000
0010
0100
0000
,
1100
0000
0000
0010
0000
0000
0001
0000
0000
0010
0100
0000
1010
0000
0000
0100
0010
0000
1001
0000
0000
1001
1001
0000
,
1000
0100
0010
0001
0001
0010
0100
1000
,
0100
0000
0010
0100
0010
0000
0001
0000
0000
0000
0000
0000
1001
0000
0000
0100
0000
0000
0110
0000
0000
1010
0000
0000
,
0110
0000
0000
0000
0000
0000
0110
0000
0000
0000
0000
0000
1010
0000
0000
0000
0110
0000
0000
0000
0100
0000
0000
0000
0010
0000
0000
0000
1000
0000
0010
0000
0100
0000
0000
0000
0000
0000
0000
0010
1000
0000
0000
0000
0000
0000
0000
0000
,
1001
0000
0000
0100
0000
0000
0010
0000
1000
0001
0010
0000
0100
0000
0000
0110
0000
0000
1001
0000
1001
0000
1001
0000
,
1001
1001
1001
0110
0110
0110
0110
0110
0110
0110
1100
1100
,
1100
0000
0000
0000
1000
0000
0000
0000
0000
0000
0000
0000
2000
0000
0000
0000
0000
0000
0000
0000
0000
0000
0000
0000
0000
0000
0000
0000
0220
0000
0000
0000
0002
0330
0000
0000
0000
0000
0000
0000
3000
0000
0000
0000
0003
0000
0000
0000
,
1100
0110
0000
1120
0030
1100
0220
0000
0000
0000
0000
0330
,
1000
0000
0000
0010
0100
0000
0100
0000
0000
0010
0000
0000
0100
0000
0000
0000
0000
0000
1000
0000
0000
0000
0000
0000
0002
0000
0000
0000
0000
0000
0000
0000
0000
0000
0000
0000
0000
0000
0000
0000
0000
0000
0000
0000
0000
0000
0000
0000
,
0000
0000
0000
0000
0000
0000
1003
0000
0000
0000
0000
0000
0100
0000
0000
0000
0000
0000
0010
0000
0010
0000
0000
0000
0010
0000
0000
0010
0000
0000
0200
0000
0000
0000
0000
0000
0000
0000
0000
0000
0000
0000
0000
0000
0000
0000
0000
0000
,
0000
0000
0000
0000
0000
0000
0000
0000
0000
0000
0000
0000
0000
0000
0000
0000
0000
0000
0000
0000
0000
0000
0000
0000
0000
0000
0000
0000
0000
0000
0300
0000
0000
0000
0000
0000
0100
0000
0000
0000
0010
0000
0010
0000
0000
0010
0000
0000
,
0000
0000
0000
0110
1010
0110
0000
0000
,
2020
0000
0000
0000
0100
0000
0101
0000
0000
0000
0000
0000
0000
0000
0001
0000
0000
0000
0100
0000
3000
0001
0000
0000
,
0130
0000
0000
0000
0000
0000
0000
0000
0000
0000
0000
0000
0100
0000
0000
0010
0000
0000
1100
0000
0000
0000
0000
0000
0110
0000
0000
0000
0000
0000
0101
0000
0000
0000
0000
0000
1010
0000
0000
0000
0001
0000
0000
0000
1000
0000
0000
0000
,
0100
0000
2000
0000
0002
0000
0000
0200
0000
0000
0020
0000
,
3003
0000
0000
0000
0000
0000
0300
0000
0030
0001
0000
0000
0020
0000
0000
1000
0000
0000
1000
0000
0000
1000
0000
0000
,
1000
0000
0230
0000
,
0302
0000
0000
0000
0000
0000
0000
0000
0000
0003
0001
0001
,
0001
0000
1000
0100
0010
0001
0001
0010
0100
1000
0100
0010
,
0001
0020
0000
0000
0000
0030
0000
0002
0000
0000
0000
0000
,
2000
0003
0000
3000
0000
0020
0000
0000
0000
0000
0000
0030
,
0100
0000
0000
0000
0010
0000
0000
0000
0100
0010
0000
0000
0000
0000
0000
0000
0110
0000
0000
0000
0000
0010
0000
0000
1001
0000
0000
0000
0000
0000
0100
0000
0000
0000
0000
0000
0010
0000
0000
0000
0000
0000
1000
0000
0000
0000
0000
0000
,
0010
1010
1001
0110
1100
0110
0000
0022
,
0000
0000
0000
2000
0233
0020
0000
3332
,
0003
2000
0000
0200
0000
3000
0020
0300
,
0002
0000
0030
0000
1003
0100
0010
0001
,
1001
0000
0000
1000
0100
0000
0010
0000
0010
0100
1000
0000
0000
0000
0010
0010
0100
0000
0010
0000
0000
1000
0000
0000
,
0010
0000
0000
0000
1000
0000
0000
0000
0100
0000
0000
0000
0010
0000
0000
0000
2020
0000
0000
0000
0000
0000
0000
0000
0000
0000
0000
0002
0000
0000
0200
0000
0000
0000
0000
0000
0000
0000
0000
0000
0000
0000
0000
0000
3030
0303
0000
0000
,
0000
0000
1000
0100
0010
0001
0010
0100
,
1000
0000
0000
0000
0010
0000
0100
0000
0000
0000
0000
0000
0001
0000
0000
0000
0000
0000
0100
0000
0100
0000
0000
0000
1000
0000
0000
0000
0100
0000
0000
0000
0000
0000
0000
0000
0100
0000
0000
1000
0000
0000
0110
0000
0000
0010
0000
0000
,
0100
0000
0000
0000
0000
0000
0000
0000
0000
0000
0000
0000
0000
0000
0000
0000
0000
0000
0000
0000
0000
0000
0000
0000
0000
0000
0000
0000
0000
0000
0000
0000
0000
0000
0000
0000
0000
0000
0000
0000
0000
0000
0000
0000
0000
0000
0000
0000
0000
0000
0000
0000
0000
0000
0000
0000
0000
0000
0000
0000
0000
0000
0000
0000
0000
0000
0000
0000
0000
0000
0000
0000
2000
0000
0000
0000
0000
0000
0000
0000
0000
0000
0000
0000
0200
0000
0000
0000
0000
0000
0000
0000
0000
0000
0000
0000
0000
0000
0000
0000
0000
0000
0000
0000
0000
0000
0000
0000
0000
0000
0000
0000
0000
0000
0020
0000
3000
0000
0000
0000
0000
0000
0000
0000
0000
0000
0000
0000
0000
0000
0000
0000
0000
0000
0000
0000
0000
0000
0330
0000
0000
0000
0000
0000
0000
0000
0000
0000
0000
0000
0000
0000
0000
0000
0000
0000
0000
0000
0000
0000
0000
0000
0022
0000
0000
0000
0000
0000
0000
0000
0000
0000
0000
0000
0000
0000
0000
0033
0000
0000
1000
0000
0000
0000
0000
0000
0000
0000
0000
0000
0000
0000
,
0000
0000
1000
0000
0100
0000
0001
0000
0100
0000
0110
0000
0011
0000
1000
0100
0000
0000
0010
0000
0000
0000
0000
0000
,
0000
0000
0000
0000
0000
0000
1001
0000
0000
0000
0000
0000
1001
0000
0000
0000
0000
0000
1001
0000
1001
0000
0000
0000
1001
0000
0000
0000
1001
0000
1001
0000
0000
1001
0000
0000
1001
0000
0000
1001
0000
0000
1001
0000
1001
0000
1001
0000
,
1001
1001
1001
1001
1001
1001
1001
1001
1001
1001
1001
1001
2002
0000
0000
0000
0000
0000
0000
0000
0000
0000
0000
0000
,
0000
0000
0000
3003
1001
0000
0000
0000
1000
0000
0100
0000
0010
0000
0001
0000
0001
0000
0010
0000
0100
0000
1000
0000
,
1000
0100
0010
0001
0001
0010
0100
1000
1000
0100
0010
0001
,
0001
0000
0000
0000
0000
0000
0000
0000
0000
0000
0000
0000
0000
0000
0000
0000
0010
0000
0000
0000
0000
0000
0000
0000
0000
0000
0000
0000
0000
0000
0000
0000
0100
0000
0000
0000
0000
0000
0000
0000
0000
0000
0000
0000
0000
0000
0000
0000
1000
0000
0000
0000
0000
0000
0000
0000
0000
0000
0000
0000
0000
0000
0000
0000
0100
0000
0000
0000
0000
0000
0000
0000
0000
0000
0000
0000
0000
0000
0000
0000
0010
0000
0000
0000
0000
0000
0000
0000
0000
0000
0000
0000
0000
0000
0000
0000
0001
0000
0000
0000
0000
0000
0000
0000
0000
0000
0000
0000
0000
0000
0000
0000
0001
0000
0000
0000
0000
0000
0000
0000
0000
0000
0000
0000
0000
0000
0000
0000
0010
0000
0000
0000
0000
0000
0000
0000
0000
0000
0000
0000
0000
0000
0000
0000
0100
0000
0000
0000
0000
0000
0000
0000
0000
0000
0000
0000
0000
0000
0000
0000
1000
0000
0000
0000
0000
0000
0000
0000
0000
0000
0000
0000
0000
0000
0001
0000
0000
0000
0000
0000
0000
0000
0000
0000
0000
0000
0000
0000
0000
0000
0000
0000
,
0010
0010
0100
0001
0100
1000
0001
0000
1000
0001
0010
0020
,
0030
0010
0020
0030
0020
0030
0000
0020
0030
0020
0030
0010
,
0020
0030
0010
0020
1030
0010
0100
0010
1000
0100
0010
0001
,
1000
0000
0000
0100
0000
0000
0000
0000
0000
0000
0000
0000
0100
0000
0000
0000
0000
0000
0000
0000
0000
0000
0000
0000
0000
0000
0000
0000
0000
0000
0000
0000
0000
0010
0000
0000
0000
0000
0000
0000
0000
0000
0000
0000
0000
0000
0000
0000
1000
0000
0000
1100
0000
0000
0000
0000
0000
0000
0000
0000
0000
0000
0000
0000
0000
0000
0000
0000
0000
0000
0000
0000
0000
0000
0000
0000
0000
0000
0020
0000
0000
0030
0000
0000
2000
0000
0000
3000
0000
0000
0010
0000
0000
0000
0000
0000
0011
0000
0000
0001
0000
0000
0000
0000
0000
0000
0000
0000
0000
0000
0000
0000
0000
0000
0000
0000
0000
0000
0000
0000
0000
0000
0000
0000
0000
0000
0000
0000
0000
2200
0000
0000
3300
0000
0000
0000
0000
0000
0000
0000
0000
0000
0000
0000
0000
0000
0000
0000
0000
0000
0000
0000
0000
0000
0000
0000
0000
0000
0000
0000
0000
0000
0000
0000
0000
0100
0000
0000
0000
0000
0000
0000
0000
0000
0000
0000
2000
0000
0000
0000
0000
0000
0000
0000
0000
0000
0000
0000
0000
0000
0000
0000
,
0000
0002
0000
0000
3000
0003
0000
0200
0320
0230
0320
0230
,
0320
0230
0320
0230
0320
0230
0320
0230
0320
0032
2000
3003
,
2000
3002
2003
3002
2003
3002
2003
3002
0003
2000
3200
2300
,
3200
2300
3200
2300
3200
2300
3200
2300
3200
2300
3020
0032
,
0023
0000
0000
0000
0032
0000
0000
0000
2003
0000
0000
0000
3220
0000
0000
0000
0330
0000
0000
0000
2200
0000
0000
0000
3320
0000
0000
0000
0000
0000
0230
0000
0000
1300
0000
0000
0020
0000
0000
0030
0000
0000
0000
0000
0000
1200
0000
0000
,
0310
0000
0200
0000
0320
0000
0000
0000
0030
0000
2000
0000
0000
0000
0000
0000
3020
0000
0000
0000
0000
0200
0030
0000
,
0000
0000
0000
0000
0000
0000
0300
0000
0000
0000
0000
0000
0020
0000
0000
0000
0000
0000
0000
0000
0030
1000
0010
0000
,
1000
0000
0000
0000
0000
0000
0000
0000
0000
0000
0000
0000
0000
0000
0000
0000
0000
0000
0000
0000
0000
0000
0000
0000
0100
0000
0000
0000
0000
0000
0000
0000
0010
0000
0000
0000
0000
0000
0000
0000
0000
0000
0000
0000
0000
0000
0000
0000
1000
0000
0000
0000
0000
0000
0000
0000
0000
0000
0000
0000
0000
0000
0000
0000
0000
0000
0000
0000
0000
0000
0000
0000
0010
0000
0000
0000
0000
0000
0000
0000
0100
0000
0000
0000
0000
0000
0000
0000
0000
0000
0000
0000
0000
0000
0000
0000
1020
0000
0000
0000
0000
0000
0000
0000
0000
0000
0000
0000
0000
0000
0000
0000
0000
0000
0000
0000
0000
0000
0000
0000
0000
0000
0000
0000
0000
0000
0000
0000
0000
0000
0000
0000
0000
0000
0000
0000
0000
0000
0000
0000
0000
0000
0000
0000
0000
0000
0000
0000
0000
0000
0000
0000
0000
0000
0000
0000
0000
0000
0000
0000
0000
0000
0000
0000
0000
0000
0000
0000
0030
0000
0000
0000
0000
0000
0000
0000
0000
0000
0000
0000
0000
0000
0000
1000
0000
0000
0010
0000
0000
0000
0000
0000
,
0000
0100
0010
0001
1000
0010
0100
0001
0200
0000
0000
0300
,
0001
1000
0100
0001
1000
0010
0010
1000
0001
0200
0300
0010
,
0002
0000
0000
0000
0000
0000
0003
0000
1000
0000
1000
0000
2010
0000
3000
0000
0011
0000
1000
0000
0001
0100
0001
1000
,
0010
0100
0010
0001
1000
0100
0010
2000
3200
0320
0030
0100
0000
0000
0000
0000
0000
0010
0100
0100
0000
0000
0000
0001
,
0000
0000
0000
0100
0010
0000
0200
0000
0000
0310
0000
0000
1010
0000
0000
0001
0000
0000
0200
0000
0000
0000
0000
0000
,
0000
0000
0000
0300
0000
0100
0001
1000
0000
1001
2010
3000
,
0000
0000
0000
0000
0001
0000
0000
0000
0000
0000
0000
0000
0000
0000
0000
0000
1010
0000
0000
0000
1010
0000
0000
0000
1010
0000
0000
1010
0020
0000
0000
0000
0030
0000
0000
0000
1010
0000
0000
0000
0000
0000
0000
0000
0000
0010
0000
0000
,
2210
0000
0000
0000
0000
0000
0000
0000
0000
0000
0000
0000
3300
0000
0000
0000
0000
0000
0000
0000
0000
0000
0000
0000
2200
0000
0000
0000
0000
0000
0000
0000
0000
0000
0000
0000
0000
0000
0000
0000
0000
0000
0000
0000
0000
0000
0000
0000
3300
0000
0000
0000
0000
0000
0000
0000
0000
0000
0000
0000
0000
0000
0000
0000
0000
0000
0000
0000
0000
0000
0000
0000
0000
0000
0000
0000
0000
0000
0000
0000
0000
0000
0000
0000
0000
0000
0000
0000
0000
0000
0000
0000
0000
0000
0000
0000
1110
0000
0000
0000
0000
0000
0000
0000
2010
0000
0000
0000
0000
0000
0000
0000
3010
0000
0000
0000
0000
0000
0000
0000
0000
0000
0000
0000
0000
0000
0000
0000
0000
0000
0000
0000
1120
0000
0000
0000
0000
0000
1130
0000
0000
0000
0000
0000
0000
0000
0000
0000
0000
0000
0000
0000
0000
0000
0000
0000
0000
0000
0000
0000
0000
0000
0000
0000
0000
0000
0000
0000
0000
0000
0000
0000
0000
0000
0000
0000
0000
0000
0000
0000
0000
0000
0000
0000
0000
0000
0000
0000
0000
0000
0000
0000
,
1100
0000
0000
0000
0001
0000
0000
0000
0000
0000
0000
0000
0000
0000
0000
0000
0000
0000
0000
0000
0000
0000
0000
0000
1100
0000
0000
0000
0000
0000
0000
0000
0100
0000
0000
0000
0001
0000
0000
0000
0000
0000
0000
0000
0000
0000
0000
0000
0000
0000
0000
0000
0000
0000
0000
0000
0010
0000
0000
0000
0000
0000
0000
0000
0100
0000
0000
0000
1000
0000
0000
0000
0001
0000
0000
0000
0100
0000
0000
0000
0001
0000
0000
0000
0010
0000
0000
0000
0010
0000
0000
0000
1000
0000
0000
0000
0100
0000
0000
0000
0001
0000
0000
0000
0100
0000
0000
0000
0010
0000
0000
0000
0020
0000
0000
0000
0000
0030
0000
0000
0100
0000
0000
0200
0000
0000
0000
0000
0000
0000
0000
0000
0000
0000
0000
0000
0000
0000
0000
0000
0000
0000
0000
0000
0000
0000
0000
0000
0000
0000
0000
0000
0000
0000
0000
0000
0000
0000
0000
0000
0000
0000
0000
0000
0000
0000
0000
0000
0000
0000
0000
0000
0000
0000
0000
0000
0000
0000
0000
0000
0000
0000
0000
0000
0000
0000
0000
0000
0000
0000
0000
0000
,
0000
0000
0000
0000
0000
0000
0000
0000
0000
0000
0000
0000
0001
0000
0000
0300
0000
0000
0001
0000
0001
0001
0000
0000
0010
0000
0000
0001
0000
0000
0001
0000
0000
0000
0000
0000
0000
0000
0000
0000
0000
0000
0000
0000
0000
0001
0000
0000
0000
0000
0000
0001
0000
0000
0000
0000
0000
0001
0000
0000
0001
0000
0000
0000
0000
0000
0001
0000
1000
1000
0000
0000
0000
0000
0000
0000
0000
0000
0000
0000
0000
0000
0000
0000
0220
0000
0000
0000
0000
0000
0000
0000
0000
0000
0000
0000
0000
0000
0000
0000
0000
0000
0000
0000
0000
0000
0000
0000
0000
0000
0000
0000
0000
0000
0000
0000
0000
0000
0000
0000
0000
0000
0000
0000
0000
0000
0000
0000
0000
0000
0000
0000
0000
0000
0000
0000
0000
0000
0000
0000
0000
0000
0000
0000
0000
0000
0000
0000
0000
0000
0000
0000
0000
0000
0000
0000
0000
0000
0000
0000
0000
0000
0000
0000
1331
0000
0000
0000
1001
0000
0000
0000
1001
0000
0000
0000
1001
0000
0000
0000
0000
0000
0000
0000
0000
0000
0000
0000
0000
0000
0000
0000
,
0000
0100
0010
1000
0000
0010
0100
0000
0010
0000
1000
0010
,
0000
1000
0110
0000
0000
1000
0000
0010
0000
0000
1000
0000
,
0010
0000
0M00
0002
0003
200M
3000
M020
0230
0302
MMM3
0020
,
0230
M302
2223
3300
2230
3302
MM23
0030
220M
3300
M020
2230
,
330M
M000
0000
MMMM
0000
0000
1MMM
0000
0000
MM1M
0000
0000
,
M1MM
1M1M
MMM1
M1MM
,
MM1M
1MMM
M1MM
M1MM
,
MM1M
1MM1
M1MM
1MMM
,
MMM1
1000
0100
0010
,
1000
0000
0000
0000
0100
0010
1010
0100
0000
0000
0100
1010
,
0010
0000
0000
0000
0000
0000
0000
0000
0000
0000
0000
0000
0000
0000
0000
0000
0000
0000
0000
0000
0000
0000
0000
0000
2000
0000
0000
0000
0000
0000
0000
0000
0000
0000
0000
0000
0000
0000
0000
0000
0000
0000
0000
0000
0000
0000
0000
0000
0200
0000
0000
0000
0000
0000
0000
0000
0000
0000
0000
0000
0020
0000
0000
0000
0000
0000
0000
0000
0000
0000
0000
0000
3000
0000
0000
0000
0000
0000
0000
0000
0000
0000
0000
0000
0000
0000
0000
0000
0000
0000
2030
0000
0000
0000
0000
0000
0000
0000
0000
0000
0000
0000
3320
0000
0000
0000
0000
0000
0000
0000
0000
0000
0000
0000
0000
0000
0000
0000
0000
0000
0000
0000
0000
0000
0000
0000
0230
0000
0000
0000
0000
0000
0300
0000
0000
0000
0000
0000
0000
0000
0000
0000
0000
0000
0000
0000
0000
0000
0000
0000
0000
0000
0000
0000
0000
0000
0000
0000
0000
0000
0000
0000
0000
0000
0000
0000
0000
0000
0000
0000
0000
0000
0000
0000
0000
0000
2000
0000
0000
0000
0000
0000
0000
0000
0000
0000
0000
0000
0000
0000
0000
0000
,
0000
0000
0000
0000
0000
0000
3020
0000
0000
0000
0000
2030
,
0000
0000
0000
0000
0000
0000
0000
0000
0000
0000
0000
0000
0000
0000
0000
0000
0220
0000
0000
0000
0000
0000
0000
0000
0000
0000
0000
0000
0000
0000
0000
0000
0000
0000
0000
0000
0000
0000
0000
0000
0000
0000
0000
0000
0000
0000
0000
0000
3330
0000
0000
1000
0000
0000
0000
0000
0000
0000
0010
0000
0000
0000
0000
0010
,
0000
0000
0000
0000
0000
0000
0001
0000
0000
0000
0000
0000
0000
0000
0000
0000
0100
0000
0000
0000
0000
0000
0000
0000
0000
0000
0000
1000
0000
0000
0000
0000
0000
0000
0000
0001
0000
0000
0000
0000
0000
0000
0000
0000
0000
0000
0100
0001
0100
0001
0000
0000
0000
0000
0000
0000
0000
0000
0000
0000
0000
0000
0000
0000
,
0022
0230
0300
0220
0030
0300
0120
0230
0320
0230
0320
0033
,
0M00
0000
1000
0000
0000
0000
0000
0000
0100
0000
0000
0000
0010
0000
0000
0000
0001
0000
0000
0000
0000
0000
0000
0000
0000
0000
0000
0000
0000
0000
0000
0000
0001
0000
0000
0000
0000
0010
0000
0000
0000
0000
0100
0000
0000
0000
0000
0000
0000
1000
0000
0000
0000
0000
0000
0000
0000
0000
0000
0000
0000
0000
0000
0000
,
1000
0000
0000
0000
0000
0100
0000
0000
0000
0000
0010
0000
0000
0000
0001
0000
0000
0000
0000
0000
0000
0000
0000
0000
0000
0000
0000
0001
0000
0000
0000
0000
0000
0000
0010
0000
0000
0100
0000
0000
0100
0000
0000
0000
1000
0000
0000
0000
0000
0000
0000
0000
0000
0000
0000
1000
0000
0000
0100
0000
0000
0000
0000
0010
,
0001
0000
0000
0000
0000
0000
0000
0000
0000
0000
0001
0000
0010
0100
0000
0000
1000
0000
0000
0000
0000
0000
0000
0000
0000
0000
0000
0000
0000
0000
0000
1000
0000
0100
0000
0000
0000
0000
0000
0000
0000
0010
0000
0001
0000
0000
0000
0000
0000
0000
0000
0000
0000
0001
0000
0000
0000
0000
0000
0010
0000
0000
0000
0000
,
0000
0000
0000
0000
0000
0000
0100
0000
0000
0000
0000
0000
0000
0000
0000
0000
0000
0000
0000
0000
0000
0000
0000
0000
0000
0000
0000
0000
0000
0000
1000
0000
0000
1000
0000
0000
0000
0000
0000
0000
0000
0000
0000
0000
0000
0000
0000
0000
0000
0000
0000
0000
0000
0000
0000
0000
0000
0000
0000
0000
0010
0000
0000
0000
0000
0000
2000
0000
0000
0000
0000
0000
3000
0000
0000
0000
0000
0000
0000
0000
0000
0000
0000
0000
0000
0000
0000
0000
0010
0000
0000
0000
0100
0000
0000
0000
0000
0000
0000
0000
0000
0000
0000
0000
0000
0000
0000
0000
0000
0000
0000
0000
0000
0000
0000
0000
1000
0000
0000
0000
0000
0000
0000
0000
0000
0000
0000
0000
0000
0000
0000
0000
0000
0000
0000
0000
0000
0000
0000
0000
0000
0000
0000
0000
0100
0000
0000
0000
0000
0000
0000
0000
0000
0000
0000
0000
0000
0000
0000
0000
0000
0000
0000
0000
0000
0000
0000
0000
0000
0000
0000
0000
0000
0000
0000
0000
0000
0000
0000
0000
0000
0000
0000
0000
0000
0000
0000
0000
0000
0000
0000
0000
,
1200
0000
0000
0000
0320
0000
0000
0000
0030
0000
0000
0000
0000
0000
0000
0000
1000
0000
0000
0000
0100
0000
0000
0000
0010
0000
0000
0010
0000
0000
0100
0000
0000
0000
0000
0000
1000
0000
0000
0000
0010
0000
0000
0000
1000
0000
0000
0000
,
0010
0000
0000
0000
0100
0000
0000
0000
0000
0000
0000
0000
1000
0000
0000
0000
0000
0000
0000
0000
0010
0000
0000
0000
0100
0000
0000
0000
1000
0000
0000
0000
0020
0000
0000
0000
1030
0000
0000
0100
0000
0000
0000
0000
0000
0000
0000
0000
,
0000
0010
0100
1010
0100
1000
0000
0020
0030
1000
0000
0010
,
1100
0000
0000
0210
1300
0000
0000
0110
1000
0120
0030
0000
,
1000
0110
0000
0000
0000
0120
0030
0000
0100
0010
1000
0110
,
0100
0000
0000
0000
1000
0000
0000
0000
0110
0000
0000
0000
0000
0000
0000
0000
0000
0000
0001
0000
0000
0100
0000
0000
0010
0000
0000
0000
0000
0000
0100
0000
0000
1000
0000
0000
0010
0000
0000
0001
0000
0000
0100
0000
0000
0001
0000
0000
,
0100
0100
0010
0000
0000
0100
0000
0010
1000
0100
0011
0001
0010
0100
1000
0010
,
0001
0100
1000
0010
0001
0100
1000
0000
1000
0100
0010
0001
1000
0100
0010
0001
,
1000
0100
0010
0001
1000
0100
0010
0001
1000
0100
0010
0001
1000
0100
0010
0001
,
0001
0010
0100
1000
0001
0010
0100
1000
0001
0010
0100
1000
0001
0010
0100
1000
,
0000
0010
1000
0100
0010
0000
1000
0100
0010
1200
0320
0030
0020
0230
0300
0010
,
0020
0000
0000
0000
0032
0000
0000
0000
0000
2003
3100
0000
0010
0100
1000
0010
,
0100
1000
0010
0200
1300
0000
0020
0030
0000
0001
0000
0000
1200
0310
0000
0001
,
1100
0110
0010
0000
0010
0110
0020
0030
0010
0210
0300
0100
0100
0120
1130
0100
0010
0010
0001
0001
0001
0001
0001
0001
0000
0000
0002
0003
0000
0000
0000
0000
0000
0000
0000
0000
0000
0010
0010
0010
0010
0010
0010
0000
0000
0100
0100
0100
0100
0100
0100
0100
0100
0001
0001
0000
0000
0000
0002
0003
0000
1000
1000
0000
,
0000
0000
0000
0000
2000
3020
0030
0000
0000
0000
0000
0000
2002
3003
0000
2002
0000
0000
0000
0000
0000
0000
0000
0000
0000
0000
0000
0000
0000
0000
0000
0000
0000
0000
0000
0000
0000
0000
0000
0000
0000
0000
0000
0000
0000
0000
0000
0000
0000
0000
0000
0000
0000
0000
0000
3003
0000
0000
0000
0000
0000
0000
0000
0000
,
1001
0000
0000
0000
;
